Detroit 2017 (1080p Bluray x265 HEVC 10bit AAC 5.1 Tigole) [UTR]

  • Category Movies
  • Type HEVC/x265
  • Language English
  • Total size 5.6 GB
  • Uploaded By UTRplus
  • Downloads 952
  • Last checked 28 minutes ago
  • Date uploaded 6 days ago
  • Seeders 34
  • Leechers 18

Detroit

ThrillerCrimeDramaHistory

A police raid in Detroit in 1967 results in one of the largest citizens' uprisings in the history of the United States.

Infohash : 388A29D46C810D87CD28747E36CD33AC9D5D9DC4



Detroit 2017 in 1080p, encoded with x265 in HEVC and AAC 5.1 English, with subtitles!
Encoded using the time consuming 2 pass, 10 bit color at 5000 kbps, from a Blu-ray source, for the highest quality possible.



Media Information

Code:

General
Format : Matroska
Format version : Version 4 / Version 2
File size : 5.44 GiB
Duration : 2 h 23 min
Overall bit rate : 5 442 kb/s
Movie name : Detroit
Encoded date : UTC 2017-12-06 00:22:58
Writing application : mkvmerge v14.0.0 ('Flow') 64bit
Writing library : libebml v1.3.4 + libmatroska v1.4.5

Video
ID : 1
Format : HEVC
Format/Info : High Efficiency Video Coding
Format profile : Main [email protected]@Main
Codec ID : V_MPEGH/ISO/HEVC
Duration : 2 h 23 min
Bit rate : 5 000 kb/s
Width : 1 920 pixels
Height : 1 040 pixels
Display aspect ratio : 1.85:1
Frame rate mode : Constant
Frame rate : 23.976 (24000/1001) FPS
Color space : YUV
Chroma subsampling : 4:2:0
Bit depth : 10 bits
Bits/(Pixel*Frame) : 0.104
Stream size : 4.99 GiB (92%)
Writing library : x265 2.5+66-dae558b40d99:[Windows][GCC 7.2.0][64 bit] 10bit
Encoding settings : cpuid=1173503 / frame-threads=3 / numa-pools=8 / wpp / no-pmode / no-pme / no-psnr / no-ssim / log-level=2 / input-csp=1 / input-res=1920x1040 / interlace=0 / total-frames=205729 / level-idc=0 / high-tier=1 / uhd-bd=0 / ref=4 / no-allow-non-conformance / no-repeat-headers / annexb / no-aud / no-hrd / info / hash=0 / no-temporal-layers / open-gop / min-keyint=23 / keyint=250 / bframes=4 / b-adapt=2 / b-pyramid / bframe-bias=0 / rc-lookahead=25 / lookahead-slices=4 / scenecut=40 / no-intra-refresh / ctu=64 / min-cu-size=8 / rect / no-amp / max-tu-size=32 / tu-inter-depth=1 / tu-intra-depth=1 / limit-tu=0 / rdoq-level=2 / dynamic-rd=0.00 / no-ssim-rd / signhide / no-tskip / nr-intra=0 / nr-inter=0 / no-constrained-intra / strong-intra-smoothing / max-merge=3 / limit-refs=3 / limit-modes / me=3 / subme=3 / merange=57 / temporal-mvp / weightp / no-weightb / no-analyze-src-pics / deblock=0:0 / sao / no-sao-non-deblock / rd=4 / no-early-skip / rskip / no-fast-intra / no-tskip-fast / no-cu-lossless / no-b-intra / no-splitrd-skip / rdpenalty=0 / psy-rd=2.00 / psy-rdoq=1.00 / no-rd-refine / analysis-reuse-mode=0 / no-lossless / cbqpoffs=0 / crqpoffs=0 / rc=abr / bitrate=5000 / qcomp=0.60 / qpstep=4 / stats-write=0 / stats-read=2 / cplxblur=20.0 / qblur=0.5 / ipratio=1.40 / pbratio=1.30 / aq-mode=3 / aq-strength=1.00 / cutree / zone-count=0 / no-strict-cbr / qg-size=32 / no-rc-grain / qpmax=69 / qpmin=0 / no-const-vbv / sar=0 / overscan=0 / videoformat=5 / range=0 / colorprim=2 / transfer=2 / colormatrix=2 / chromaloc=0 / display-window=0 / max-cll=0,0 / min-luma=0 / max-luma=1023 / log2-max-poc-lsb=8 / vui-timing-info / vui-hrd-info / slices=1 / no-opt-qp-pps / no-opt-ref-list-length-pps / no-multi-pass-opt-rps / scenecut-bias=0.05 / no-opt-cu-delta-qp / no-aq-motion / no-hdr / no-hdr-opt / no-dhdr10-opt / analysis-reuse-level=5 / scale-factor=0 / refine-intra=0 / refine-inter=0 / refine-mv=0 / no-limit-sao / ctu-info=0 / no-lowpass-dct / refine-mv-type=0 / copy-pic=1
Default : Yes
Forced : No

Audio
ID : 2
Format : AAC
Format/Info : Advanced Audio Codec
Format profile : LC
Codec ID : A_AAC
Duration : 2 h 23 min
Bit rate : 419 kb/s
Channel(s) : 6 channels
Channel positions : Front: L C R, Side: L R, LFE
Sampling rate : 48.0 kHz
Frame rate : 46.875 FPS (1024 spf)
Compression mode : Lossy
Delay relative to video : 20 ms
Stream size : 428 MiB (8%)
Language : English
Default : Yes
Forced : No

Text #1
ID : 3
Format : VobSub
Muxing mode : zlib
Codec ID : S_VOBSUB
Codec ID/Info : Picture based subtitle format used on DVDs
Duration : 2 h 14 min
Bit rate : 13.8 kb/s
Count of elements : 2526
Stream size : 13.3 MiB (0%)
Language : English
Default : No
Forced : No

Text #2
ID : 4
Format : VobSub
Muxing mode : zlib
Codec ID : S_VOBSUB
Codec ID/Info : Picture based subtitle format used on DVDs
Duration : 2 h 22 min
Bit rate : 9 759 b/s
Count of elements : 2191
Stream size : 9.94 MiB (0%)
Language : French
Default : No
Forced : No

Text #3
ID : 5
Format : VobSub
Muxing mode : zlib
Codec ID : S_VOBSUB
Codec ID/Info : Picture based subtitle format used on DVDs
Duration : 2 h 22 min
Bit rate : 9 721 b/s
Count of elements : 1973
Stream size : 9.91 MiB (0%)
Language : Spanish
Default : No
Forced : No

Menu
00:00:00.000 : en:Chapter 01
00:04:02.784 : en:Chapter 02
00:09:08.548 : en:Chapter 03
00:15:03.569 : en:Chapter 04
00:25:58.348 : en:Chapter 05
00:32:21.606 : en:Chapter 06
00:36:06.080 : en:Chapter 07
00:41:01.750 : en:Chapter 08
00:49:54.950 : en:Chapter 09
00:55:24.070 : en:Chapter 10
00:58:56.241 : en:Chapter 11
01:06:06.921 : en:Chapter 12
01:10:42.154 : en:Chapter 13
01:14:16.368 : en:Chapter 14
01:25:02.806 : en:Chapter 15
01:28:46.571 : en:Chapter 16
01:32:57.321 : en:Chapter 17
01:39:37.429 : en:Chapter 18
01:48:53.151 : en:Chapter 19
01:52:10.974 : en:Chapter 20
01:59:15.523 : en:Chapter 21
02:04:45.728 : en:Chapter 22
02:10:13.222 : en:Chapter 23
02:14:53.043 : en:Chapter 24


Source Information

Code:

Release : Detroit.2017.BluRay.1080p.AVC.DTS-HD.MA5.1-CHDBits
Complete name : Detroit_t00.mkv
File size : 37.4 GiB
Duration : 2 h 23 min
Overall bit rate mode : Variable
Overall bit rate : 37.4 Mb/s


Files:

Detroit 2017 (1080p Bluray x265 HEVC 10bit AAC 5.1 Tigole)
  • Detroit 2017 (1080p x265 10bit Tigole).mkv (5.4 GB)
  • Featurettes
    • Algee Smith and Larry Reed - Grow.mkv (37.1 MB)
    • Detroit - Then and Now.mkv (17.6 MB)
    • The Cast.mkv (25.2 MB)
    • The Hope.mkv (17.5 MB)
    • The Invasion.mkv (24.0 MB)
    • The Truth.mkv (24.3 MB)
    • Trailer.mkv (27.6 MB)

Comments

Code:

  • udp://tracker.torrent.eu.org:451/announce
  • udp://tracker.opentrackr.org:1337/announce
  • udp://tracker.coppersurfer.tk:6969/announce