Leatherface (2017) x 808 (1080p) DD5.1 - 2.0 x264 Phun Psyz

  • Category Movies
  • Type HD
  • Language English
  • Total size 1.5 GB
  • Uploaded By PhunPsyz
  • Downloads 25
  • Last checked 4 hours ago
  • Date uploaded 4 days ago
  • Seeders 9
  • Leechers 2

Leatherface

Horror

A young nurse is kidnapped by a group of violent teens who escape from a mental hospital and take her on the road trip from hell. Pursued by an equally deranged lawman out for revenge, one of these teens is destined for tragedy and horrors that will destroy his mind, molding him into the monster we now call Leatherface.

Infohash : 020D404A6324F0A0BD166C5CF0EA286C8F32D6A9

www.imdb.com/title/tt2620590/

A teenage Leatherface escapes from a mental hospital with three other inmates, kidnapping a young nurse and taking her on a road trip from hell, while being pursued by a lawman out for revenge.

Source: ROVERS (6.55 GiB)





Format : MPEG-4
Format profile : Base Media / Version 2
Codec ID : mp42 (isom/iso2/avc1/mp41)
File size : 1.51 GiB
Duration : 1 h 27 min
Overall bit rate mode : Variable
Overall bit rate : 2 465 kb/s
Writing application : HandBrake 1.0.7 2017040900

Video
ID : 1
Format : AVC
Format/Info : Advanced Video Codec
Format profile : [email protected]
Format settings : CABAC / 8 Ref Frames
Format settings, CABAC : Yes
Format settings, RefFrames : 8 frames
Codec ID : avc1
Codec ID/Info : Advanced Video Coding
Duration : 1 h 27 min
Bit rate : 1 978 kb/s
Width : 1 920 pixels
Height : 808 pixels
Display aspect ratio : 2.40:1
Frame rate mode : Variable
Frame rate : 23.976 (24000/1001) FPS
Minimum frame rate : 23.974 FPS
Maximum frame rate : 23.981 FPS
Color space : YUV
Chroma subsampling : 4:2:0
Bit depth : 8 bits
Scan type : Progressive
Bits/(Pixel*Frame) : 0.053
Stream size : 1.21 GiB (80%)
Writing library : x264 core 148 r2708 86b7198
Color range : Limited
Color primaries : BT.709
Transfer characteristics : BT.709
Matrix coefficients : BT.709

Audio #1
ID : 2
Format : AC-3
Format/Info : Audio Coding 3
Format settings, Endianness : Big
Codec ID : ac-3
Duration : 1 h 27 min
Bit rate mode : Constant
Bit rate : 320 kb/s
Channel(s) : 6 channels
Channel positions : Front: L C R, Side: L R, LFE
Sampling rate : 48.0 kHz
Frame rate : 31.250 FPS (1536 SPF)
Bit depth : 16 bits
Compression mode : Lossy
Stream size : 201 MiB (13%)
Title : Surround / Surround
Language : English
Service kind : Complete Main
Default : Yes
Alternate group : 1
Fallback To : 3

Audio #2
ID : 3
Format : AAC
Format/Info : Advanced Audio Codec
Format profile : LC
Codec ID : mp4a-40-2
Duration : 1 h 27 min
Bit rate mode : Variable
Bit rate : 160 kb/s
Channel(s) : 2 channels
Channel positions : Front: L R
Sampling rate : 48.0 kHz
Frame rate : 46.875 FPS (1024 SPF)
Compression mode : Lossy
Stream size : 100 MiB (6%)
Title : Stereo / Stereo
Language : English
Default : Inherited From: 2
Alternate group : 1
Fallback From : 2

Files:

  • Leatherface (2017) x 808 (1080p) DD5.1 - 2.0 x264 Phun Psyz.mp4 (1.5 GB)

There are currently no comments. Feel free to leave one :)

Code:

  • udp://tracker.pirateparty.gr:6969/announce
  • udp://tracker.leechers-paradise.org:6969/announce
  • udp://tracker.internetwarriors.net:1337/announce
  • udp://inferno.demonoid.pw:3391/announce
  • udp://tracker.grepler.com:6969/announce
  • http://explodie.org:6969/announce
  • http://mgtracker.org:6969/announce
  • udp://tracker.coppersurfer.tk:6969/announce
  • udp://public.popcorn-tracker.org:6969/announce
  • udp://ipv4.tracker.harry.lu:80/announce
  • http://tracker.opentrackr.org/announce
  • udp://tracker.tiny-vps.com:6969/announce